Lossless [Heavy / Power] » Black Sabbath (UK) - Master Of Insanity [Single] (1992) [Lossless FLAC]
  • 31
  • http://i.imgur.com/hsCAbGO.jpg

    http://i.imgur.com/62EOXFt.jpg

    Artist: Black Sabbath
    Release: Master Of Insanity [Special Collectors Double CD Single] (1992)
    Genre: Heavy/Traditional Metal
    Country: England
    Bitrate: FLAC
    Digipak (Red) (1 flac file +1 cue)
    Slim Case (Blue) (1 flac file +1 cue)
    Hidden Link
    new link uploaded onto ulozto
    ---------------------------------------------------------------------
    206 MB
    Thanks to the original uploader

    Ronnie James Dio (R.I.P. 2010) Vocals
    Tony Iommi Guitars
    Geezer Butler Bass
    Vinny Appice Drums
    Geoff Nicholls Keyboards

    mp3 version by jasonkont over here -> viewtopic.php?f=21&t=12275

    ---------------------------------------------------------------------
    27 minutes
    1. cd 1 with TV Crimes (Live - Tampa, FL) (13:54)
    2. cd 2 with Die Young (live) (13:06)
    CD Red:
    01. Master of Insanity - 4:10
    02. TV Crimes (Live at the Sun Dome, Tampa, Forida, 1992) - 4:23
    03. Neon Knights (Live at the Sun Dome, Tampa, Forida, 1992) - 5:22
    CD Blue:
    01. Master Of Insanity - 4:09
    02. Die Young (Live at the Sun Dome, Tampa, Forida, 1992) - 2:23
    03. Children Of The Sea (Live at the Sun Dome, Tampa, Forida, 1992) - 6:34

    Track | Start | Length | Start sector | End sector
    ---------------------------------------------------------
    1 | 0:00.33 | 4:09.42 | 33 | 18749
    2 | 4:10.00 | 4:22.53 | 18750 | 38452
    3 | 8:32.53 | 5:21.45 | 38453 | 62572

    Track | Start | Length | Start sector | End sector
    ---------------------------------------------------------
    1 | 0:00.33 | 4:09.10 | 33 | 18717
    2 | 4:09.43 | 2:22.72 | 18718 | 29439
    3 | 6:32.40 | 6:33.45 | 29440 | 58959
    User avatar
    FORUM MOD!
    Canada (ca) Male 
    Status:Offline
    Rank: FORUM MOD!
    Location: Ontario
    Posts: 3742

    Reputation: 83748
    Topics Solved: 328

    new link uploaded onto https://ulozto.net

    • 2 likes this
    User avatar
    FORUM MOD!
    Canada (ca) Male 
    Status:Offline
    Rank: FORUM MOD!
    Location: Ontario
    Posts: 3742

    Reputation: 83748
    Topics Solved: 328


    « Return to Lossless [Heavy / Power]



    Related Topics  Author   Replies   Views 
    related Black Sabbath (UK) - Master Of Insanity [Special Collectors Double CD Single] (1992)

    jasonkont

    0

    566

    related Black Sabbath (UK) - Live at Dumfries, Scotland [Bootleg] (16/11-1969) [Lossless FLAC]

    Scott

    5

    2106

    related Black Sabbath (UK) - Live at Hammersmith-Odeon, London [SBD Bootleg] (13/4-1994) [Lossless FLAC]

    Yurei

    1

    3174

    related Black Sabbath (UK) - Live in Costa Mesa, California, USA [Bootleg] (3/14 (?)-1986) [Lossless FLAC]

    Yurei

    0

    324

    related Black Sabbath (UK) - Black Moon [Promo Single] (1989)

    jasonkont

    1

    1165

    related Black Sabbath - Black Sabbath (45th and 50th anniversary)

    zig

    9

    2794

    related Black Sabbath (UK) - Live at Orpheum Theater, Boston, MA [SBD-Bootleg] (1992)

    canadaspaceman

    0

    237


    « Previous topic | Next topic »

    Who is online
    Users browsing this forum: No registered users and 1 guest