Lossless [Hard Rock] » Citizen Kane (US) - Hot Blooded Rocker [EP] (1983) [Lossless WAV Vinyl Rip]
  • 45
  • http://i.imgur.com/RNZHBuJ.png

    Artist: Citizen Kane
    Release: Citizen Kane
    Year: 1983
    Genre: Hard Rock
    Country: USA
    Bitrate: wav lossless
    Hidden Link
    ---------------------------------------------------------------------
    Citizen Kane were a hard rock band from L.A. signed to Rocshire records and disappeared fast and not much is known about them either if anyone can shed some light on them please do. Note: I forgot to separate the tracks so there is going to be two tracks instead of four.
    ---------------------------------------------------------------------
    1. Hot Blooded Rocker (3:05)
    2. Sugar Babe (2:29)
    3. I Still Love You (5:09)
    4. Keep It Up (3:18)
    Random avatar
    United States (us) Male  YouTube 
    Status:Offline
    Name: Zilversmit
    Rank: Fear My Way
    Location: Arizona USA
    Posts: 66

    Reputation: 2128
    Topics Solved: 0

    Killjoy1974 wrote:Thank you for introduction with the group! But a very high record level ! :(

    CUE - if someone need

    REM GENRE Hard Rock
    REM DATE 1983
    PERFORMER "Citizen Kane"
    TITLE "Citizen Kane"
    FILE "Citizen Kane - Citizen Kane - 01 Hot Blooded Rock - Sugar Babe.wav" WAVE
    TRACK 01 AUDIO
    TITLE "Hot Blooded Rocker"
    INDEX 01 00:00:00
    TRACK 02 AUDIO
    TITLE "Sugar Babe"
    INDEX 01 03:16:62
    FILE "Citizen Kane - Citizen Kane - 01 I Still Love You - Keep It Up.wav" WAVE
    TRACK 03 AUDIO
    TITLE "I Still Love You"
    INDEX 01 00:00:00
    TRACK 04 AUDIO
    TITLE "Keep It Up"
    INDEX 01 05:21:10


    Quit complaining cause the audio on the vinyl wasn't the best in the first place it actually sounded it was recorded live than in a studio either that or bad production the second song doesn't even sound it belongs on this release. By the way if nobody noticed it yet.
    Random avatar
    United States (us) Male  YouTube 
    Status:Offline
    Name: Zilversmit
    Rank: Fear My Way
    Location: Arizona USA
    Posts: 66

    Reputation: 2128
    Topics Solved: 0


    Here's some scans for people who wants to see what the release looks like. Hidden Link

    • 1 likes this
    Random avatar
    United States (us) Male  YouTube 
    Status:Offline
    Name: Zilversmit
    Rank: Fear My Way
    Location: Arizona USA
    Posts: 66

    Reputation: 2128
    Topics Solved: 0


    « Return to Lossless [Hard Rock]



    Related Topics  Author   Replies   Views 
    related [SOLVED] [REQS] Citizen Kane (US) - Hot Blooded Rocker [EP] (1983)

    SacrifyX

    8

    2209

    related [SOLVED] [NEED RE-UP] Rated X (Ger) - Rock Blooded (1983)

    StrongerThanEvil

    1

    488

    related Rated X (Ger) - Rock Blooded (1983)

    sacreddeath

    0

    460

    related Able Kane (US) - Stealin' the Show (1983)

    riptorn

    2

    1644

    related [SOLVED] [NEED-RE-UP] Able Kane (US) - Stealin' The Show (1983)

    Evilmastant

    1

    800

    related The Rods (US) - In The Raw (1983) [Lossless WAV Vinyl Rip]

    Heavy Thrashhead

    0

    492

    related Raven (UK) - All For One (1983) [Apple Lossless Vinyl Rip]

    VardisRules

    1

    1467


    « Previous topic | Next topic »

    Who is online
    Users browsing this forum: No registered users and 1 guest